2016 THE.MAGNIFICENT.SEVEN.2016.HDCAM.XVID-VAIN
3.516 vistas

  • Information
  • Trailer

PG-13 Sinopsis de THE.MAGNIFICENT.SEVEN.2016.HDCAM.XVID-VAIN (2016)

P R E S E N T S . . . .

The.Magnificent.Seven.2016.HDCAM.XviD-VAiN

iMDB……..: http://www.imdb.com/title/tt2404435/

T E C H N i C A L . i N F O . . .

Basic Information
Format : AVI
Format/Info : Audio Video Interleave
File size : 1.72 GiB
Duration : 2 h 8 min
Overall bit rate : 1 918 kb/s
Writing library : VirtualDub build 35491/release

Video
ID : 0
Format : MPEG-4 Visual
Format profile : Advanced [email protected]
Format settings, BVOP : 2
Format settings, QPel : No
Format settings, GMC : No warppoints
Format settings, Matrix : Default (H.263)
Muxing mode : Packed bitstream
Codec ID : XVID
Codec ID/Hint : XviD
Duration : 2 h 8 min
Bit rate : 1 714 kb/s
Width : 720 pixels
Height : 336 pixels
Display aspect ratio : 2.143
Frame rate : 29.970 (29970/1000) FPS
Color space : YUV
Chroma subsampling : 4:2:0
Bit depth : 8 bits
Scan type : Progressive
Compression mode : Lossy
Bits/(Pixel*Frame) : 0.236
Stream size : 1.53 GiB (89%)
Writing library : XviD 64

Audio
ID : 1
Format : AC-3
Format/Info : Audio Coding 3
Mode extension : CM (complete main)
Format settings, Endianness : Big
Codec ID : 2000
Duration : 2 h 8 min
Bit rate mode : Constant
Bit rate : 192 kb/s
Channel(s) : 2 channels
Channel positions : Front: L R
Sampling rate : 48.0 kHz
Frame rate : 31.250 FPS (1536 spf)
Compression mode : Lossy
Stream size : 176 MiB (10%)
Alignment : Split accross interleaves
Interleave, duration : 33 ms (1.00 video frame)
Interleave, preload duratio : 500 ms

E N C O D E R S . N O T E S . . .

SOURCE……: ViDEO…UnKnOwN
…………: AUDiO…UnKnOwN
SAMPLE……: Yippers
ADDED NOTE..: the poo is strong with this one LOL!!! anyways did the usual filters to fix er up. vid was good with it to be honest just had to much greenish hue thing going on. ran audio through sum more filters still a cam…

v7 a6 based on cam quality…


estadisticas